Details for this torrent 

Bubble Gum 2011 Hindi 1080p WEB-DL x264 AAC { TaRa }.mkv
Type:
Video > HD - Movies
Files:
4
Size:
1.65 GiB (1769650020 Bytes)
Tag(s):
SkTaRa
Uploaded:
2019-08-25 06:08:41 GMT
By:
SkTaRa
Seeders:
0
Leechers:
1
Comments
0  

Info Hash:
691D162436D289FE3AF38279A3039B7434568EC3




(Problems with magnets links are fixed by upgrading your torrent client!)
===================================================================
General
Complete name               : Bubble Gum 2011 Hindi 1080p WEB-DL x264 AAC { TaRa }.mkv
Format                      : Matroska
Format version              : Version 4
File size                   : 1.65 GiB
Duration                    : 1 h 56 min
Overall bit rate            : 2 028 kb/s
===================================================================
Video
ID                          : 1
Format                      : AVC
Format/Info                 : Advanced Video Codec
Format profile              : [email protected]
Format settings             : CABAC / 4 Ref Frames
Format settings, CABAC      : Yes
Format settings, Reference  : 4 frames
Codec ID                    : V_MPEG4/ISO/AVC
Duration                    : 1 h 56 min
Bit rate                    : 1 900 kb/s
Width                       : 1 920 pixels
Height                      : 816 pixels
Display aspect ratio        : 2.35:1
Frame rate mode             : Constant
Frame rate                  : 24.000 FPS
Color space                 : YUV
Chroma subsampling          : 4:2:0
Bit depth                   : 8 bits
Scan type                   : Progressive
Bits/(Pixel*Frame)          : 0.051
Stream size                 : 1.52 GiB (92%)
Title                       : .....::::: TaRa :::::.....
Language                    : Hindi
Default                     : Yes
Forced                      : No
===================================================================
Audio
ID                          : 2
Format                      : AAC LC
Format/Info                 : Advanced Audio Codec Low Complexity
Codec ID                    : A_AAC-2
Duration                    : 1 h 56 min
Bit rate                    : 161 kb/s
Channel(s)                  : 2 channels
Channel layout              : L R
Sampling rate               : 48.0 kHz
Frame rate                  : 46.875 FPS (1024 SPF)
Compression mode            : Lossy
Delay relative to video     : -64 ms
Stream size                 : 134 MiB (8%)
Title                       : .....::::: TaRa :::::.....
Language                    : Hindi
Default                     : Yes
Forced                      : No
=================================================================== 
https://extraimage.net/image/OodD 
https://extraimage.net/image/OodH 
https://extraimage.net/image/Oodo 
https://extraimage.net/image/Oodt 
https://extraimage.net/image/Oodx 
https://extraimage.net/image/Ood6 
https://extraimage.net/image/OodV 
https://extraimage.net/image/Oodu 
https://extraimage.net/image/OodA 
https://extraimage.net/image/Oodv 
https://extraimage.net/image/OodW 
https://extraimage.net/image/Oodf 
https://extraimage.net/image/Ooha 
https://extraimage.net/image/Oohw 
https://extraimage.net/image/Ooh2 
https://extraimage.net/image/OohN 
https://extraimage.net/image/OohT 
https://extraimage.net/image/Oohj 
https://extraimage.net/image/Oohn 
https://extraimage.net/image/Oohs