Details for this torrent 

House Of Wax 2005 BRRip 720p x264 AC3 [English_Latino] CALLIXTUS
Type:
Video > HD - Movies
Files:
5
Size:
1.37 GiB (1472226361 Bytes)
Info:
IMDB
Spoken language(s):
English, Spanish
Tag(s):
House Of Wax La Casa De Cera
Uploaded:
2014-10-24 19:33:19 GMT
By:
URBiN4HD Trusted
Seeders:
0
Leechers:
1
Comments
0  

Info Hash:
D40C5A21A1A471B0DA2903D7244A666050E70442




(Problems with magnets links are fixed by upgrading your torrent client!)

La Casa De Cera [House Of Wax] (2005)
*Audio English + Español Latino



A group of unwitting teens are stranded near a strange wax museum and soon must fight to survive and keep from becoming the next exhibit.



Un grupo de adolescentes inconscientes están varados cerca de un museo de cera de extraño y pronto debe luchar para sobrevivir y evitar que se vuelvan la próxima exhibición.



General
Format                                   : Matroska
Format version                           : Version 2
File size                                : 1.32 GiB
Duration                                 : 1h 52mn
Overall bit rate                         : 1 675 Kbps
Encoded date                             : UTC 2014-10-24 11:41:09
Writing application                      : mkvmerge v7.3.0 ('Nouages') 64bit built on Oct 22 2014 18:53:34
Writing library                          : libebml v1.3.0 + libmatroska v1.4.1
DURATION                                 : 00:00:19.500000000
NUMBER_OF_FRAMES                         : 1
NUMBER_OF_BYTES                          : 104
_STATISTICS_WRITING_APP                  : mkvmerge v7.3.0 ('Nouages') 64bit built on Oct 22 2014 18:53:34
_STATISTICS_WRITING_DATE_UTC             : 2014-10-24 11:41:09
_STATISTICS_TAGS                         : BPS DURATION NUMBER_OF_FRAMES NUMBER_OF_BYTES
 
http://www.imdb.com/title/tt0397065/?ref_=nv_sr_1]

Video
ID                                       : 1
Format                                   : AVC
Format/Info                              : Advanced Video Codec
Format profile                           : [email protected]
Format settings, CABAC                   : Yes
Format settings, ReFrames                : 4 frames
Codec ID                                 : V_MPEG4/ISO/AVC
Duration                                 : 1h 52mn
Bit rate                                 : 1 300 Kbps
Width                                    : 1 280 pixels
Height                                   : 720 pixels
Display aspect ratio                     : 16:9
Frame rate mode                          : Constant
Frame rate                               : 23.976 fps
Color space                              : YUV
Chroma subsampling                       : 4:2:0
Bit depth                                : 8 bits
Scan type                                : Progressive
Bits/(Pixel*Frame)                       : 0.059
Stream size                              : 1 014 MiB (75%)
Writing library                          : x264 core 142 r2479 dd79a61
Default                                  : Yes
Forced                                   : No

Audio #1
ID                                       : 2
Format                                   : AC-3
Format/Info                              : Audio Coding 3
Mode extension                           : CM (complete main)
Format settings, Endianness              : Big
Codec ID                                 : A_AC3
Duration                                 : 1h 52mn
Bit rate mode                            : Constant
Bit rate                                 : 192 Kbps
Channel(s)                               : 6 channels
Channel positions                        : Front: L C R, Side: L R, LFE
Sampling rate                            : 48.0 KHz
Bit depth                                : 16 bits
Compression mode                         : Lossy
Stream size                              : 155 MiB (11%)
Language                                 : English
Default                                  : Yes
Forced                                   : No

Audio #2
ID                                       : 3
Format                                   : AC-3
Format/Info                              : Audio Coding 3
Mode extension                           : CM (complete main)
Format settings, Endianness              : Big
Codec ID                                 : A_AC3
Duration                                 : 1h 52mn
Bit rate mode                            : Constant
Bit rate                                 : 192 Kbps
Channel(s)                               : 6 channels
Channel positions                        : Front: L C R, Side: L R, LFE
Sampling rate                            : 48.0 KHz
Bit depth                                : 16 bits
Compression mode                         : Lossy
Stream size                              : 155 MiB (11%)
Language                                 : Spanish
Default                                  : No
Forced                                   : No

Text
ID                                       : 4
Format                                   : UTF-8
Codec ID                                 : S_TEXT/UTF8
Codec ID/Info                            : UTF-8 Plain Text
Title                                    : Encoded By / Encodeado Por:  CALLIXTUS
Default                                  : Yes
Forced                                   : No

Menu
00:00:00.000                             : en:Chapter 1
00:03:05.852                             : en:Chapter 2
00:06:24.217                             : en:Chapter 3
00:09:53.259                             : en:Chapter 4
00:12:58.611                             : en:Chapter 5
00:16:42.001                             : en:Chapter 6
00:19:26.165                             : en:Chapter 7
00:21:58.650                             : en:Chapter 8
00:25:35.367                             : en:Chapter 9
00:29:43.782                             : en:Chapter 10
00:33:48.192                             : en:Chapter 11
00:40:11.742                             : en:Chapter 12
00:44:34.004                             : en:Chapter 13
00:48:19.062                             : en:Chapter 14
00:52:17.801                             : en:Chapter 15
00:55:46.843                             : en:Chapter 16
00:59:14.884                             : en:Chapter 17
01:03:13.289                             : en:Chapter 18
01:06:43.666                             : en:Chapter 19
01:09:02.304                             : en:Chapter 20
01:11:04.260                             : en:Chapter 21
01:13:58.267                             : en:Chapter 22
01:17:40.489                             : en:Chapter 23
01:22:45.627                             : en:Chapter 24
01:27:10.391                             : en:Chapter 25
01:31:49.337                             : en:Chapter 26
01:34:46.347                             : en:Chapter 27
01:38:08.883                             : en:Chapter 28
01:41:15.903                             : en:Chapter 29
01:44:26.260                             : en:Chapter 30
01:47:01.248                             : en:Chapter 31
01:52:43.965                             : en:Chapter 32



===SCREENSHOTS===


 
http://www.ultraimg.com/images/Callixtus0000151553.png 
http://www.ultraimg.com/images/Callixtus000025d6dd.png 
http://www.ultraimg.com/images/Callixtus00003b815a.png